Пасхальное интервью Святейшего Патриарха Кирилла

Скачать

Пасхальное интервью Святейшего Патриарха Кирилла

Пасхальное интервью Святейшего Патриарха Кирилла

Год выпуска: 2013

Страна: Россия

Телеканал: Россия 1, Россия HD

Дата и время первого выхода в эфир: 05.05.2013 11:10 MSK

Жанр: интервью

Продолжительность: 00:26:51

Перевод: Не требуется

Русские субтитры: нет

Источник: собственный рип

Описание:

5 мая 2013 года, в день Светлого Христова Воскресения, на телеканалах «Россия 1» и «Россия HD» состоялся показ Пасхального интервью Святейшего Патриарха Московского и всея Руси Кирилла. Предстоятель Русской Православной Церкви ответил на вопросы обозревателя Дмитрия Киселёва.

Вашему вниманию предлагается HD-версия интервью.

Качество: DVB-AVC

Формат: MKV

Видеокодек: H.264

Аудиокодек: MP2

Видео: AVC, 1920x1080 (16:9), 7816 kbps, 25 fps

Аудио: MP2, 48000Hz, 192 kbps, 2 ch

MediaInfo

Общее

Уникальный идентификатор : 134351483688432135807312525243104248926 (0x65132790A4D5666A27B14E76852E445E)

Полное имя : E:\2013-05-05 Пасхальное интервью Святейшего Патриарха Кирилла («Россия HD»).mkv

Формат : Matroska

Версия формата : Version 2

Размер файла : 1,53 Гбайт

Продолжительность : 26 м.

Общий поток : 8171 Кбит/сек

Программа кодирования : Lavf52.64.2

Библиотека кодирования : Lavf52.64.2

Видео

Идентификатор : 1

Формат : AVC

Формат/Информация : Advanced Video Codec

Профиль формата : High@L4.0

Параметр CABAC формата : Да

Параметр ReFrames формата : 3 кадра

Параметр GOP формата : M=3, N=30

Идентификатор кодека : V_MPEG4/ISO/AVC

Продолжительность : 26 м.

Битрейт : 7816 Кбит/сек

Ширина : 1920 пикселей

Высота : 1080 пикселей

Соотношение сторон : 16:9

Режим частоты кадров : Постоянный

Частота кадров : 25,000 кадров/сек

Цветовое пространство : YUV

Субдискретизация насыщенности : 4:2:0

Битовая глубина : 8 бит

Тип развёртки : MBAFF

Бит/(Пиксели*Кадры) : 0.151

Размер потока : 1,47 Гбайт (96%)

Default : Да

Forced : Нет

Аудио

Идентификатор : 2

Формат : MPEG Audio

Версия формата : Version 1

Профиль формата : Layer 2

Режим : Joint stereo

Расширение режима : Intensity Stereo + MS Stereo

Идентификатор кодека : A_MPEG/L2

Идентификатор кодека/Подсказка : MP2

Продолжительность : 26 м.

Вид битрейта : Постоянный

Битрейт : 192 Кбит/сек

Каналы : 2 канала

Частота : 48,0 КГц

Метод сжатия : С потерями

Размер потока : 36,9 Мбайт (2%)

Default : Да

Forced : Нет

Скачать