Остров надежды (Елена Плыгун)

Скачать

Остров надежды (Елена Плыгун)

Остров надежды

Год выпуска: 2013

Страна: Россия

Жанр: Православно-познавательный

Продолжительность: 00:58:14

Перевод: Не требуется

Русские субтитры: нет

Режиссер: Е. Плыгун

Описание: Фильм о маленьком островке Неба на земле, куда течет река горя человеческого...

Алкоголь. Наркомания. Курение. Игромания. Рак...

Фильм - ПОМОЩЬ!

Помощь людям, страдающим болезнями духовными и телесными.

Фильм - НАДЕЖДА!.

Надежда на милость Божию и исцеление...

Доп. информация: Рип сделан с этого исходника:

Сэмпл: http://multi-up.com/874256

Качество: DVDRip

Формат: AVI

Видео: 1786 Кбит/сек, 720*400 (16:9), в 25,000 кадров/сек, MPEG-4 Visual (XviD) (Advanced Simple@L5) (BVOP2)

Аудио: Русский, 128 Кбит/сек, 48,0 КГц, 2 канала, MPEG Audio (MP3) (Version 1) (Layer 3)

MediaInfo

Формат : AVI

Формат/Информация : Audio Video Interleave

Размер файла : 802 Мбайт

Продолжительность : 58 м.

Общий поток : 1927 Кбит/сек

Видео

Идентификатор : 0

Формат : MPEG-4 Visual

Профиль формата : Advanced Simple@L5

Параметр BVOP формата : 2

Параметр QPel формата : Нет

Параметр GMC формата : Без точки перехода

Параметр матрицы формата : Default (MPEG)

Идентификатор кодека : XVID

Идентификатор кодека/Подсказка : XviD

Продолжительность : 58 м.

Битрейт : 1786 Кбит/сек

Ширина : 720 пикселей

Высота : 400 пикселей

Соотношение сторон : 16:9

Частота кадров : 25,000 кадров/сек

Цветовое пространство : YUV

Субдискретизация насыщенности : 4:2:0

Битовая глубина : 8 бит

Тип развёртки : Прогрессивная

Метод сжатия : С потерями

Бит/(Пиксели*Кадры) : 0.248

Размер потока : 744 Мбайт (93%)

Библиотека кодирования : XviD 1.2.1 (UTC 2008-12-04)

Аудио

Идентификатор : 1

Формат : MPEG Audio

Версия формата : Version 1

Профиль формата : Layer 3

Идентификатор кодека : 55

Идентификатор кодека/Подсказка : MP3

Продолжительность : 58 м.

Продолжительность оригинала : 58 м.

Вид битрейта : Постоянный

Битрейт : 128 Кбит/сек

Каналы : 2 канала

Частота : 48,0 КГц

Метод сжатия : С потерями

Размер потока : 53,3 Мбайт (7%)

Выравнивание : Разделение по промежуткам

Продолжительность промежутка : 24 мс. (0,60 видеокадр)

Скачать