Незримые старцы (Дмитрий Воробьевский)

Скачать

Незримые старцы (Дмитрий Воробьевский)

Незримые старцы

Год выпуска: 2012

Страна: Россия

Жанр: Православно-познавательный

Продолжительность: 00:58:34

Перевод: Не требуется

Русские субтитры: нет

Режиссер: Д. Воробьевский

Описание: По книге Юрия Воробьевского "Незримые старцы".

Вершина Афона кажется неприступной. Необитаемой. Однако это не так. Мы сами только что спустились оттуда. Наверняка и сейчас цепочка неведомых нам паломников ползет вверх. Но где-то там, в скалах, есть и другие обитатели...

...Вот тайна, - сказал старец Паисий, - их семеро, и я знаю четырёх из них. А ты где? - он наклонился немного вперёд, как бы к кому-то невидимо присутствующему. - Где ты, блаженный мой?

Доп. информация: Исходный файл в формате "воб" переименован в "mpg". Реавторинг сделать не получилось - и MuxMan, и DVDLabPro вылетают в начале муксинга.

Сэмпл: http://multi-up.com/

Качество: DVD5

Формат: MPG

Видео кодек: MPEG2

Аудио кодек: AC3

Видео: 7507 Кбит/сек, 720*576 (16:9), в 25,000 кадров/сек, MPEG Video (PAL) (Version 2) (Main@Main)

Аудио: Русский, 320 Кбит/сек, 48,0 КГц, 16 бит, 2 канала, AC-3 (DVD-Video)

MediaInfo

Формат : MPEG-PS

Размер файла : 3,27 Гбайт

Продолжительность : 58 м.

Режим общего битрейта : Переменный

Общий поток : 7986 Кбит/сек

Видео

Идентификатор : 224 (0xE0)

Формат : MPEG Video

Версия формата : Version 2

Профиль формата : Main@Main

Параметр BVOP формата : Нет

Параметр матрицы формата : По умолчанию

Параметр GOP формата : N=18

Продолжительность : 58 м.

Вид битрейта : Переменный

Битрейт : 7507 Кбит/сек

Ширина : 720 пикселей

Высота : 576 пикселей

Соотношение сторон : 16:9

Частота кадров : 25,000 кадров/сек

Стандарт вещания : PAL

Цветовое пространство : YUV

Субдискретизация насыщенности : 4:2:0

Битовая глубина : 8 бит

Тип развёртки : Прогрессивная

Метод сжатия : С потерями

Бит/(Пиксели*Кадры) : 0.724

Размер потока : 3,07 Гбайт (94%)

Аудио

Идентификатор : 189 (0xBD)-128 (0x80)

Формат : AC-3

Формат/Информация : Audio Coding 3

Расширение режима : CM (complete main)

Параметр Endianness формата : Big

Режим смешивания : DVD-Video

Продолжительность : 58 м.

Вид битрейта : Постоянный

Битрейт : 320 Кбит/сек

Каналы : 2 канала

Расположение каналов : Front: L R

Частота : 48,0 КГц

Битовая глубина : 16 бит

Метод сжатия : С потерями

Размер потока : 134 Мбайт (4%)

Обложка и диск

Скачать