Угрозы нового мирового порядка (Студия православных фильмов во имя Апостола и Евангелиста Иоанна Богослова)

Скачать

Угрозы нового мирового порядка (Студия православных фильмов во имя Апостола и Евангелиста Иоанна Богослова)

Угрозы нового мирового порядка

Год выпуска: 2013

Страна: Россия

Жанр: Православно-познавательный

Продолжительность: 00:18:46 + 00:34:34

Перевод: Не требуется

Русские субтитры: нет

Режиссер: Студия православных фильмов во имя Апостола и Евангелиста Иоанна Богослова

Описание: Фрагменты организованной "Союзом Христианское Возрождение" православно-патрииотической конференции посвящены выступлениям Владимира Осипова и Людмилы Рябиченко о нарастающих угрозах нового мирового порядка.

Сэмпл: http://multi-up.com/876310

Качество: SATRip

Формат: AVI

Видео: 640*480 (4:3), в 25,000 кадров/сек, MPEG-4 Visual (XviD) (Simple@L3)

Аудио: Русский, 128 Кбит/сек, 44,1 КГц, 2 канала, MPEG Audio (MP3) (Version 1) (Layer 3) (Joint stereo / MS Stereo)

Битрейты, скриншоты и отчёты

Часть 1

1201 Кбит/сек

MediaInfo

Формат : AVI

Формат/Информация : Audio Video Interleave

Размер файла : 180 Мбайт

Продолжительность : 18 м.

Общий поток : 1341 Кбит/сек

Видео

Идентификатор : 0

Формат : MPEG-4 Visual

Профиль формата : Simple@L3

Параметр BVOP формата : Нет

Параметр QPel формата : Нет

Параметр GMC формата : Без точки перехода

Параметр матрицы формата : Default (H.263)

Идентификатор кодека : XVID

Идентификатор кодека/Подсказка : XviD

Продолжительность : 18 м.

Битрейт : 1201 Кбит/сек

Ширина : 640 пикселей

Высота : 480 пикселей

Соотношение сторон : 4:3

Частота кадров : 25,000 кадров/сек

Цветовое пространство : YUV

Субдискретизация насыщенности : 4:2:0

Битовая глубина : 8 бит

Тип развёртки : Прогрессивная

Метод сжатия : С потерями

Бит/(Пиксели*Кадры) : 0.156

Размер потока : 161 Мбайт (90%)

Библиотека кодирования : XviD 1.2.1 (UTC 2008-12-04)

Аудио

Идентификатор : 1

Формат : MPEG Audio

Версия формата : Version 1

Профиль формата : Layer 3

Режим : Joint stereo

Расширение режима : MS Stereo

Идентификатор кодека : 55

Идентификатор кодека/Подсказка : MP3

Продолжительность : 12 м.

Продолжительность оригинала : 18 м.

Вид битрейта : Постоянный

Битрейт : 128 Кбит/сек

Каналы : 2 канала

Частота : 44,1 КГц

Метод сжатия : С потерями

Размер потока : 17,2 Мбайт (10%)

Выравнивание : Соединение по промежуткам

Продолжительность промежутка : 26 мс. (0,65 видеокадр)

Часть 2

802 Кбит/сек

MediaInfo

Формат : AVI

Формат/Информация : Audio Video Interleave

Размер файла : 233 Мбайт

Продолжительность : 34 м.

Общий поток : 942 Кбит/сек

Видео

Идентификатор : 0

Формат : MPEG-4 Visual

Профиль формата : Simple@L3

Параметр BVOP формата : Нет

Параметр QPel формата : Нет

Параметр GMC формата : Без точки перехода

Параметр матрицы формата : Default (H.263)

Идентификатор кодека : XVID

Идентификатор кодека/Подсказка : XviD

Продолжительность : 34 м.

Битрейт : 802 Кбит/сек

Ширина : 640 пикселей

Высота : 480 пикселей

Соотношение сторон : 4:3

Частота кадров : 25,000 кадров/сек

Цветовое пространство : YUV

Субдискретизация насыщенности : 4:2:0

Битовая глубина : 8 бит

Тип развёртки : Прогрессивная

Метод сжатия : С потерями

Бит/(Пиксели*Кадры) : 0.104

Размер потока : 198 Мбайт (85%)

Библиотека кодирования : XviD 1.2.1 (UTC 2008-12-04)

Аудио

Идентификатор : 1

Формат : MPEG Audio

Версия формата : Version 1

Профиль формата : Layer 3

Режим : Joint stereo

Расширение режима : MS Stereo

Идентификатор кодека : 55

Идентификатор кодека/Подсказка : MP3

Продолжительность : 22 м.

Продолжительность оригинала : 34 м.

Вид битрейта : Постоянный

Битрейт : 128 Кбит/сек

Каналы : 2 канала

Частота : 44,1 КГц

Метод сжатия : С потерями

Размер потока : 31,6 Мбайт (14%)

Выравнивание : Соединение по промежуткам

Продолжительность промежутка : 26 мс. (0,65 видеокадр)

Скачать