"Библия и история". Видеолекция С. Воробьева (Издательство Московской Патриархии Русской Православной Церкви)

Скачать

"Библия и история". Видеолекция С. Воробьева (Издательство Московской Патриархии Русской Православной Церкви)

--"Библия и история". Видеолекция С. Воробьева-- Год выпуска: 2011

Страна: Россия

Жанр: Видеолекция

Продолжительность: 02:50:22

Перевод: Не требуется

Русские субтитры: нет--Режиссер: Издательство Московской Патриархии Русской Православной Церкви--Описание: В видеолекции кратко изложены библейские события от Сотворения мира до Рождества Христова в параллели с данными истории, археологическими и естественнонаучными открытиями XIX-XXI столетий. Приведены наиболее достоверные свято-отеческие толкования. За основу хронологии взят текст Септуагинты (греческого перевода Библии), представлены и современные научные датировки. Для иллюстрирования использованы древние фрески и мозаики, исторические материалы.--качество: DVDRip ()

формат: AVI

видеокодек: XviD

аудиокодек: AC3

Видео: Xvid 688x512 25fps 1436kbps

Аудио: Dolby AC3 48000Hz stereo 192kbps

MediaInfo

Код:

General

Complete name                  : D:\TORRENTS\Biblija_i_istorija.2011.DVDrip_by_ftarfon.avi

Format                         : AVI

Format/Info                    : Audio Video Interleave

File size                      : 1.95 GiB

Duration                       : 2h 50mn

Overall bit rate               : 1 638 Kbps

Writing application            : FairUse Wizard - http://fairusewizard.com

Writing library                : The best and REALLY easy backup tool

Video

ID                             : 0

Format                         : MPEG-4 Visual

Format profile                 : Advanced Simple@L5

Format settings, BVOP          : 1

Format settings, QPel          : No

Format settings, GMC           : No warppoints

Format settings, Matrix        : Default (MPEG)

Muxing mode                    : Packed bitstream

Codec ID                       : XVID

Codec ID/Hint                  : XviD

Duration                       : 2h 50mn

Bit rate                       : 1 436 Kbps

Width                          : 688 pixels

Height                         : 512 pixels

Display aspect ratio           : 4:3

Frame rate                     : 25.000 fps

Color space                    : YUV

Chroma subsampling             : 4:2:0

Bit depth                      : 8 bits

Scan type                      : Progressive

Compression mode               : Lossy

Bits/(Pixel*Frame)             : 0.163

Stream size                    : 1.71 GiB (88%)

Writing library                : XviD 1.2.0.dev47 (UTC 2006-11-01)

Audio

ID                             : 1

Format                         : AC-3

Format/Info                    : Audio Coding 3

Mode extension                 : CM (complete main)

Format settings, Endianness    : Big

Codec ID                       : 2000

Duration                       : 2h 50mn

Bit rate mode                  : Constant

Bit rate                       : 192 Kbps

Channel(s)                     : 2 channels

Channel positions              : Front: L R

Sampling rate                  : 48.0 KHz

Bit depth                      : 16 bits

Compression mode               : Lossy

Stream size                    : 234 MiB (12%)

Alignment                      : Split accross interleaves

Interleave, duration           : 40 ms (1.00 video frame)

Interleave, preload duration   : 500 ms

--

--

Скачать