Афонские кельи (Дмитрий Воробьевский)

Скачать

Афонские кельи (Дмитрий Воробьевский)

Афонские кельи

Год выпуска: 2012

Страна: Россия

Жанр: Православные святыни

Продолжительность: 00:56:39

Перевод: Не требуется

Русские субтитры: нет

Режиссер: Д. Воробьевский

Описание: Есть Афон славных обителей. Есть Афон древней истории. Есть Афон великих святынь. Но есть и другой Афон. Это Афон таинственных пещер. Почти незаметных горных троп, которые с высоты птичьего полета кажутся какими-то замысловатыми письменами. Прочесть их натруженными ногами - уже подвиг. И вот награда. Впереди зелёные цветочки кипарисов - верная примета укромной обители. А в ней - старец. Это особый мир. Прикровенный. Полный скромных, великих трудов. Звучащий едва различимым молитвенным шёпотом, который отражается во всей Вселенной. Мир, зачастую привыкший к благословенным лишениям и благостным обидам... Это мир афонских келий.

Доп. информация: Ближе к концу фильма присутствуют два секундных кубических артефакта. Рип сделан с этого исходника:

Сэмпл: http://multi-up.com/808907

Качество: DVDRip

Формат: AVI

Видео кодек: XviD

Аудио кодек: MP3

Видео: 1802 Кбит/сек, 688*384 (16:9), в 25,000 кадров/сек, MPEG-4 Visual (XviD) (Advanced Simple@L5) (BVOP2)

Аудио: Русский, 128 Кбит/сек, 48,0 КГц, 2 канала, MPEG Audio (MP3) (Version 1) (Layer 3)

MediaInfo

Формат : AVI

Формат/Информация : Audio Video Interleave

Размер файла : 787 Мбайт

Продолжительность : 56 м.

Общий поток : 1943 Кбит/сек

Видео

Идентификатор : 0

Формат : MPEG-4 Visual

Профиль формата : Advanced Simple@L5

Параметр BVOP формата : 2

Параметр QPel формата : Нет

Параметр GMC формата : Без точки перехода

Параметр матрицы формата : Default (H.263)

Идентификатор кодека : XVID

Идентификатор кодека/Подсказка : XviD

Продолжительность : 56 м.

Битрейт : 1802 Кбит/сек

Ширина : 688 пикселей

Высота : 384 пикселя

Соотношение сторон : 16:9

Частота кадров : 25,000 кадров/сек

Цветовое пространство : YUV

Субдискретизация насыщенности : 4:2:0

Битовая глубина : 8 бит

Тип развёртки : Прогрессивная

Метод сжатия : С потерями

Бит/(Пиксели*Кадры) : 0.273

Размер потока : 730 Мбайт (93%)

Библиотека кодирования : XviD 1.2.1 (UTC 2008-12-04)

Аудио

Идентификатор : 1

Формат : MPEG Audio

Версия формата : Version 1

Профиль формата : Layer 3

Идентификатор кодека : 55

Идентификатор кодека/Подсказка : MP3

Продолжительность : 56 м.

Продолжительность оригинала : 56 м.

Вид битрейта : Постоянный

Битрейт : 128 Кбит/сек

Каналы : 2 канала

Частота : 48,0 КГц

Метод сжатия : С потерями

Размер потока : 51,9 Мбайт (7%)

Выравнивание : Разделение по промежуткам

Продолжительность промежутка : 24 мс. (0,60 видеокадр)

Скачать