Андерсен Ганс Христиан - Дюймовочка, Стойкий оловянный солдатик (В гостях у сказки №18)

Скачать

 Андерсен Ганс Христиан - Дюймовочка, Стойкий оловянный солдатик (В гостях у сказки №18)

Дюймовочка, Стойкий оловянный солдатик

Год выпуска: 2005

Фамилия автора: Андерсен

Имя автора: Ганс Христиан

Исполнитель: Полонский Дмитрий

Жанр: сказка

Издательство: Союз

Кат.№: SSTCD 0123-05

ISBN: н/д

Тип: аудиокнига

Аудио кодек: APE

Битрейт аудио: lossless

Тип рипа: image+.cue

Время звучания: 00:42:47

Источник: собственный рип

Описание:

Датский сказочник Ганс Христиан Андерсен по-настоящему верил в чудо и в то, что случиться оно может не только в сказке, но и в жизни. Он боготворил артистов, художников и поэтов и больше всего на свете хотел стать одним из них. Над ним смеялись и издевались, но он упорно твердил 'я буду служить искусству, только для этого я и живу'. И мечта сбылась. Андерсен стал великим сказочником, в произведениях которого самые обычные предметы чудесным образом превращаются в сказочные: и осколок бутылки, и оловянный солдатик, и серебряная монетка и даже уличный фонарь. Сказки Андерсена переполнены целой гаммой чувств: от милосердия и восхищения до иронии и жалости, а сочетание в них волшебного и реального, чудесного и обыденного делает его сказки одинаково интересными как для детей, так и для взрослых. В этот аудиосборник вошли аудиоверсии сказок 'Дюймовочка' и 'Стойкий оловянный солдатик'.

Доп. информация:

Андерсен на трекере

Лог EAC

Exact Audio Copy V0.99 prebeta 5 from 4. May 2009

Отчёт EAC об извлечении, выполненном 20. сентября 2011, 19:20

Полонский Д. / Андерсен (В гостях у сказки №18)

Дисковод: HL-DT-STDVDRAM GE20NU10 Adapter: 3 ID: 1

Режим чтения : Достоверность

Использование точного потока : Да

Отключение кэша аудио : Да

Использование указателей C2 : Нет

Коррекция смещения при чтении : 667

Способность читать области Lead-in и Lead-out : Нет

Заполнение пропущенных сэмплов тишиной : Да

Удаление блоков с тишиной в начале и конце : Нет

При вычислениях CRC использовались нулевые сэмплы : Да

Интерфейс : Встроенный Win32-интерфейс для Win NT/2000

Выходной формат : Внутренние WAV-операции

Формат сэмплов : 44.100 Гц; 16 бит; стерео

TOC извлечённого CD

Трек | Старт | Длительность | Начальный сектор | Конечный сектор

---------------------------------------------------------------------

1 | 0:00.00 | 1:29.27 | 0 | 6701

2 | 1:29.27 | 5:02.35 | 6702 | 29386

3 | 6:31.62 | 5:07.32 | 29387 | 52443

4 | 11:39.19 | 5:42.18 | 52444 | 78111

5 | 17:21.37 | 5:11.40 | 78112 | 101476

6 | 22:33.02 | 5:54.15 | 101477 | 128041

7 | 28:27.17 | 5:06.58 | 128042 | 151049

8 | 33:34.00 | 4:49.18 | 151050 | 172742

9 | 38:23.18 | 4:13.35 | 172743 | 191752

Характеристики диапазона извлечения и сообщения об ошибках

Выбранный диапазон

Имя файла H:\Полонский Д. - Андерсен (В гостях у сказки №18).wav

Пиковый уровень 98.9 %

Качество диапазона 99.9 %

CRC теста 1CB82FF7

CRC копии 1CB82FF7

Копирование... OK

Ошибок не произошло

AccurateRip: сводка

Трек 1 нет в базе данных

Трек 2 нет в базе данных

Трек 3 нет в базе данных

Трек 4 нет в базе данных

Трек 5 нет в базе данных

Трек 6 нет в базе данных

Трек 7 нет в базе данных

Трек 8 нет в базе данных

Трек 9 нет в базе данных

Ни одного трека нет в базе AccurateRip

Конец отчёта

Лог проверки качества

AUDIOCHECKER v2.0 beta (build 457) - by Dester - opdester@freemail.hu

~~~~~~~~~~~~~~~~~~~~~~~~~~~~~~~~~~

-=== DO NOT EDIT THIS FILE! ===-

Path: ...\Полонский Д. - Андерсен (В гостях у сказки №18) 2005

1 -=- Полонский Д. - Андерсен (В гостях у сказки №18).wav -=- CDDA (100%)

50586996

Скачать