Испанские сказки: Курочка-королева ● Муравьишка (Мелодия-детям) [Георгий Вицин, Екатерина Краснобаева, Владимир Горюшин, Роман Филиппов, Маргарита Корабельникова, Всеволод Абдулов и другие, 1980 / 2014 г., lossless, Wav

Скачать

 Испанские сказки: Курочка-королева ● Муравьишка (Мелодия-детям) [Георгий Вицин, Екатерина Краснобаева, Владимир Горюшин, Роман Филиппов, Маргарита Корабельникова, Всеволод Абдулов и другие, 1980 / 2014 г., lossless, Wav

Испанские сказки: Курочка-королева ● Муравьишка

Год записи аудиоспектакля / издан на CD: 1980 / 2014

Исполнители: Георгий Вицин, Екатерина Краснобаева, Владимир Горюшин, Роман Филиппов, Маргарита Корабельникова, Всеволод Абдулов и другие

Издатель, номер по каталогу: Мелодия, MEL CD 50 02244

Жанр: Сказка / аудиоспектакль

Аудиокодек: WavPack

Тип рипа: image+.cue

Битрейт: lossless

Время звучания: 0:45:55

Производитель диска: Россия

Источник: ley-barmaley / lossless-galaxy

Сканирование: full scans (JPG, 300dpi)

Курочка-королева

«Курочка — королева»... Ну, и что ж такого? Знаем же мы и Царевну-лягушку, и Царевну-лебедь? А значит, королевой могла стать и курочка, про которую рассказывает эта забавная испанская сказка. Недаром вот уже сколько времени помнит о ней народ, а вот имя её мужа — заносчивого поначалу и очень собой гордившегося — давно забылось...

Это и не удивительно. Что такого уж необыкновенного в короле? Король как король: сидит себе на троне, приказывает слугам, а те бегают по его поручениям. Ничего особенного. Разве ему пришлось совершать какие-нибудь подвиги, чтобы стать королем? Он родился в королевской семье и со временем надел корону. Всё очень просто.

Зато курочка — героиня нашей сказки — была собой хороша необыкновенно: и бела, как снег в горах, и гребешок у неё был золотой, как солнце в полдень! Да к тому же отыскала она сверкающий камешек, роясь в навозной куче. А с такой-то красотой и богатством как было не стать ей гордой испанской королевой?

Но все-таки давай подумаем вот о чём: гребешок гребешком, камушек камушком... Но вообразить себе курицу на королевском троне — не так-то просто, согласись! Чтобы этого добиться, наша героиня, по крайней мере, должна либо совершить целую кучу всяких необыкновенных подвигов — а для этого нужна немалая храбрость, либо обладать каким-то сверхкуриным умом!

И — представь себе — так оно и было. Поэтому давай-ка быстро соберёмся в дорогу. Не то опоздаем: курочка уже отправилась через леса и реки в город. Ей не терпится поскорее стать невестой короля! В путь — за сказкой!

/М. Павлова/

Роли и исполнители:

Сказочник – Георгий Вицин

Курочка – Екатерина Краснобаева

Пёс, Стражник – Владимир Горюшин

Волк, Дуб – Роман Филиппов

Река – Маргарита Корабельникова

Дворецкий – Всеволод Абдулов

Слуга – Ибрагим Барги

Король – Фёдор Шейн

Инструментальный ансамбль п/у Александра Корнеева

Инсценировка Фёдора Шейна

Музыка Игоря Кадомцева

● ● ● ● ● ● ●

Муравьишка

Ну вот, ты уже побегал по двору, наигрался со своими друзьями, потом повозился на ковре, составляя пирамиду из разноцветных, один другого меньше, кружочков, спел вместе с мамой свою любимую песенку. А теперь посиди тихо и послушай сказку о красавице с румяными щёчками. О муравьишке, которая однажды, шагая по дороге, нашла под большим серым камнем маленький медный грошик.

Сказка про муравьишку долго-долго шла к нам из далекой страны Испании. И сама сказка - испанская, и сочинили её поначалу на испанском языке, потому и кое-какие имена и названия в ней испанские - их уж никак нельзя было пересказать по-русски, как всю сказку.

Но вот что особенно интересно: в эту сказку можно играть. Почему играть? Да потому, что это такая сказка: её и сочиняли играючи, она и сама по себе - игра.

Это сказка-пирамидка. Вот представь себе, что один из кружочков, которые ты нанизываешь друг на дружку, вдруг куда-то затерялся. И что же тогда получится? Да ничего не получится! Вся пирамидка развалится.

Так и сказка. В ней нельзя пропустить ни одного словечка, ни одной из цепочек, которые цепляются-цепляются одна за другую, а потом вдруг у тебя в руках - целая большая и красивая цепь! Ни одно из звеньев этой цепи не должно потеряться, иначе вся цепь разорвётся. И ничего нельзя будет разобрать. Ведь сказка-то наша - "цепная"! Так называют у всех народов сказки, составляющиеся из отдельных звеньев-событий.

Ну вот совсем как наша русская народная сказка про репку, которую "тянут-потянут, вытянуть не могут". А когда вся "цепь" - дед, баба, внучка, собака, кошка и мышка - составилась, тогда репку и вытянули!

А теперь давай внимательно слушать, стараясь не пропустить ни одного из множества "если бы, если бы, если бы", из которых состоит наша сказка-пирамидка.

/М. Павлова/

Роли и исполнители:

Сказочник – Николай Литвинов

Муравьишка – Маргарита Корабельникова

Бык – Роман Филиппов

Мышонок – Михаил Лобанов. Песню Мышонка исполняет Всеволод Абдулов

Пёс – Владимир Горюшин

Голубь – Всеволод Абдулов

Куропатка, Продавец – М. Агафонова

Жук, Слесарь – Ибрагим Барги

Голубка – Екатерина Краснобаева

Ручей – Татьяна Шатилова

Принцесса – Ирина Солонина

Инструментальный ансамбль п/у Александра Корнеева

Инсценировка Фёдора Шейна

Музыка Игоря Кадомцева

EAC log

Exact Audio Copy V1.0 beta 3 from 29. August 2011

Отчёт EAC об извлечении, выполненном 23. мая 2014, 18:55

Георгий Вицин, Екатерина Краснобаева, Маргарита Корабельникова, Всеволод Абдулов и другие / Курочка-королева (Мелодия, MEL CD 50 02244)

Дисковод: ASUS DRW-1814BL Adapter: 0 ID: 0

Режим чтения : Достоверность

Использование точного потока : Да

Отключение кэша аудио : Да

Использование указателей C2 : Нет

Коррекция смещения при чтении : 6

Способность читать области Lead-in и Lead-out : Нет

Заполнение пропущенных сэмплов тишиной : Да

Удаление блоков с тишиной в начале и конце : Нет

При вычислениях CRC использовались нулевые сэмплы : Да

Интерфейс : Встроенный Win32-интерфейс для Win NT/2000

Выходной формат : Внутренние WAV-операции

Формат сэмплов : 44.100 Гц; 16 бит; стерео

TOC извлечённого CD

Трек | Старт | Длительность | Начальный сектор | Конечный сектор

---------------------------------------------------------------------

1 | 0:00.00 | 4:41.54 | 0 | 21128

2 | 4:41.54 | 6:42.13 | 21129 | 51291

3 | 11:23.67 | 6:01.44 | 51292 | 78410

4 | 17:25.36 | 5:24.02 | 78411 | 102712

5 | 22:49.38 | 5:18.54 | 102713 | 126616

6 | 28:08.17 | 4:15.39 | 126617 | 145780

7 | 32:23.56 | 6:32.42 | 145781 | 175222

8 | 38:56.23 | 6:58.47 | 175223 | 206619

Характеристики диапазона извлечения и сообщения об ошибках

Выбранный диапазон

Имя файла G:\ley-barmaley\музыкальные сказки на сайте lossless-galaxy.ru\Курочка-королева (Мелодия, MEL CD 50 02244).wav

Пиковый уровень 80.7 %

Скорость извлечения 4.2 X

Качество диапазона 99.9 %

CRC теста 008ECB92

CRC копии 008ECB92

Копирование... OK

Ошибок не произошло

AccurateRip: сводка

Трек 1 отсутствует в базе данных

Трек 2 отсутствует в базе данных

Трек 3 отсутствует в базе данных

Трек 4 отсутствует в базе данных

Трек 5 отсутствует в базе данных

Трек 6 отсутствует в базе данных

Трек 7 отсутствует в базе данных

Трек 8 отсутствует в базе данных

Ни одного трека нет в базе AccurateRip

Конец отчёта

---- CUETools DB Plugin V2.1.3

[CTDB TOCID: szRg9GYCH9zUYqwWus07XGE.lSs-] disk not present in database, Submit result: szRg9GYCH9zUYqwWus07XGE.lSs- has been uploaded

==== Контрольная сумма отчёта 9E6FF82BE8D93E386DDE4F65361B967E17054316C8CDE06A8FBFF6A21E2F9EA8 ====

Dynamic Range Meter

foobar2000 1.1.15 / Dynamic Range Meter 1.1.1

log date: 2014-05-23 18:59:48

--------------------------------------------------------------------------------

Analyzed: Сказочник – Георгий Вицин; Курочка – Екатерина Краснобаева; Пёс, Стражник – Владимир Горюшин; Волк, Дуб – Роман Филиппов; Река – Маргарита Корабельникова; Дворецкий – Всеволод Абдулов; Слуга – Ибрагим Барги; Король – Фёдор Шейн. Инструментальный ансамбль п/у Александра Корнеева / Курочка-королева (Мелодия, MEL CD 50 02244) (1-4)

Сказочник – Николай Литвинов; Муравьишка – Маргарита Корабельникова; Бык – Роман Филиппов; Мышонок – Михаил Лобанов. Песню Мышонка исполняет Всеволод Абдулов; Пёс – Владимир Горюшин; Голубь – Всеволод Абдулов; Куропатка, Продавец – М. Агафонова; Жук, Слесарь – Ибрагим Барги; Голубка – Екатерина Краснобаева; Ручей – Татьяна Шатилова; Принцесса – Ирина Солонина. Инструментальный ансамбль п/у Александра Корнеева / Курочка-королева (Мелодия, MEL CD 50 02244) (5-8)

--------------------------------------------------------------------------------

DR Peak RMS Duration Track

--------------------------------------------------------------------------------

DR16 -2.62 dB -23.23 dB 4:42 01-Курочка-королева. Часть 1

DR15 -3.34 dB -23.25 dB 6:42 02-Курочка-королева. Часть 2

DR16 -1.88 dB -23.50 dB 6:02 03-Курочка-королева. Часть 3

DR14 -3.66 dB -21.10 dB 5:24 04-Курочка-королева. Часть 4

DR15 -3.26 dB -22.60 dB 5:19 05-Муравьишка. Часть 1

DR13 -3.22 dB -21.77 dB 4:16 06-Муравьишка. Часть 2

DR15 -1.86 dB -24.18 dB 6:33 07-Муравьишка. Часть 3

DR16 -2.55 dB -23.67 dB 6:59 08-Муравьишка. Часть 4

--------------------------------------------------------------------------------

Number of tracks: 8

Official DR value: DR15

Samplerate: 44100 Hz

Channels: 2

Bits per sample: 16

Bitrate: 694 kbps

Codec: WavPack

================================================================================

auCDtect

-----------------------

DON'T MODIFY THIS FILE

-----------------------

PERFORMER: auCDtect Task Manager, ver. 1.5.1RC3 build 1.5.1.4

Copyright (c) 2008-2010 y-soft. All rights reserved

http://y-soft.org

ANALYZER: auCDtect: CD records authenticity detector, version 0.8.2

Copyright (c) 2004 Oleg Berngardt. All rights reserved.

Copyright (c) 2004 Alexander Djourik. All rights reserved.

FILE: Курочка-королева (Мелодия, MEL CD 50 02244).wv

Size: 238881154 Hash: 121B5FA7F6D39051E8F480744A1DC05E Accuracy: -m0

Conclusion: CDDA 100%

Signature: 26A87C619BBF14B8A1B074ACB32499A070743FCD

FILE: Курочка-королева (Мелодия, MEL CD 50 02244).wav

Size: 485970284 Hash: 121B5FA7F6D39051E8F480744A1DC05E Accuracy: -m0

Conclusion: CDDA 100%

Signature: D81AD251CD2F83A776BACE7A81FB665F529E2E6A

CD & matrix

Другие аудиоспектакли

Скачать